Skip to main content

Dub Apocalypse Live at Church on 2011-12-08

Audio Preview

etree
Dub Apocalypse Live at Church on 2011-12-08






Collection DubApocalypse
Band/Artist Dub Apocalypse
Venue Church
Location Boston, MA

Source Schoeps MK4>KC5>CMC6>Sonosax SX-M2>Apogee Mini-me(aes out,24bit/96khz)>COAX>Edirol R-44
Lineage SDHC Card>USB>Macbook Pro>Wave Editor(tracking,fades,resample(izotope)/dither(mbit+)to 16 bit/44.1k)>XAct(FLAC 8,ffp,fix sbe)
Taped by Andy Murray
Transferred by Andy Murray

Notes

Dub Apocalypse
2011-12-08
Church
Boston, MA

Recorded and transferred by Andy Murray

Source: Schoeps MK4>KC5>CMC6>Sonosax SX-M2>Apogee Mini-me(aes out,24bit/96khz)>COAX>Edirol R-44

Lineage: SDHC Card>USB>Macbook Pro>Wave Editor(tracking,fades,resample(izotope)/dither(mbit+)to 16 bit/44.1k)>XAct(FLAC 8,ffp,fix sbe)

Tommy Benedetti - Drums
Timo Shanko - Saxophone
Johnny Trama - Guitar
Jeff Lockhart - Guitar
Nate Edgar - Bass
DJ Axel Foley

Cobill with Thunder Body

1 Set
1 Disc

;flac fingerprints generated by xACT 2.13 on 2011-12-09 11:15:27 -0500

length expanded size cdr WAVE problems fmt ratio filename
1:29.33 15777260 B --- -- ----- wav 1.0000 dubapoc2011-12-08_mk4_1644_d1t01.wav
25:37.68 271286780 B --- -- ----- wav 1.0000 dubapoc2011-12-08_mk4_1644_d1t02.wav
12:20.36 130620716 B --- -- ----- wav 1.0000 dubapoc2011-12-08_mk4_1644_d1t03.wav
11:32.48 122181740 B --- -- ----- wav 1.0000 dubapoc2011-12-08_mk4_1644_d1t04.wav
14:22.69 152219132 B --- -- ----- wav 1.0000 dubapoc2011-12-08_mk4_1644_d1t05.wav
9:53.70 104769884 B --- -- ----- wav 1.0000 dubapoc2011-12-08_mk4_1644_d1t06.wav
75:17.24 796855512 B 1.0000 (6 files)

comment
Reviews

There are no reviews yet. Be the first one to write a review.
SIMILAR ITEMS (based on metadata)
Dub Apocalypse
by Dub Apocalypse
etree
eye 51
favorite 0
comment 0
Source: Schoeps MK4>KC5>CMC6>Sonosax SX-M2>Apogee Mini-me(aes out,24bit/96khz)>COAX>Edirol R-44
Dub Apocalypse
by Dub Apocalypse
etree
eye 56
favorite 0
comment 0
Source: Schoeps MK4>KC5>CMC6>Sonosax SX-M2>Apogee Mini-me(aes out,24bit/96khz)>COAX>Edirol R-44
Dub Apocalypse
by Dub Apocalypse
etree
eye 134
favorite 0
comment 0
Source: Schoeps MK4>KC5>CMC6>Sonosax SX-M2>Apogee Mini-me(aes out,24bit/96khz)>COAX>Edirol R-44 & Soundboard>R-44
Dub Apocalypse
by Dub Apocalypse
etree
eye 173
favorite 0
comment 0
Source: source1: akg 481 > V2 > r-44 > WAV (24/96k), source2: sbd > r-44 > WAV (24/96k)
Dub Apocalypse
by Dub Apocalypse
etree
eye 240
favorite 2
comment 0
Source: ADK-TC/ADK-ST + SBD > R4
Dub Apocalypse
by Dub Apocalypse
etree
eye 70
favorite 0
comment 0
Source: Schoeps MK4>KC5>CMC6>Sonosax SX-R4(24bit/96khz) & Soundboard>SX-R4
Dub Apocalypse
by Dub Apocalypse
etree
eye 42
favorite 0
comment 0
Source: Schoeps MK4>KC5>CMC6>Sonosax SX-R4(24bit/96khz)
Dub Apocalypse
by Dub Apocalypse
etree
eye 59
favorite 0
comment 0
Source: Schoeps MK4>KC5>CMC6>Sonosax SX-R4(24bit/96khz) & Soundboard>SX-R4
Dub Apocalypse
by Dub Apocalypse
etree
eye 55
favorite 0
comment 0
Source: Schoeps MK4>KC5>CMC6>Sonosax SX-R4(24bit/96khz)
Dub Apocalypse
by Dub Apocalypse
etree
eye 44
favorite 0
comment 0
Source: Schoeps MK4>KC5>CMC6>Sonosax SX-M2>Apogee Mini-me(aes out,24bit/96khz)>COAX>Edirol R-44